Steve Kimock Band

8150

Vail, CO

Feb 24, 2002

Stream This Show

$30.95
For $12.99/month stream official concert audio and video recordings of your favorite artists and enjoy these added benefits
  • Paid subscribers save 15% on Livestreams, CDs, and Downloads
  • Exclusive live audio & video recordings
  • Premium soundboard quality

Buy Full Show

$9.95

$9.95

About Formats
About Formats
Show Notes

Steve Kimock - guitars, lap steel

Rodney Holmes - drums

Alphonso Johnson - bass

Mitch Stein - guitar

Recorded by Charlie Miller and Arielle Phares

SHNTOOL OUTPUT:

    length     expanded size    cdr  WAVE problems  fmt   ratio  filename

    20:12.27      213860348 B   ---   --   ---xx   flac  0.5737  skb020224d1_01_Long_Form_Part_1.flac

    16:59.00      179751644 B   ---   --   ---xx   flac  0.5809  skb020224d1_02_Elmer's_Revenge.flac

    10:29.01      110957996 B   ---   --   ---xx   flac  0.5722  skb020224d1_03_A_New_Africa.flac

    18:16.13      193365020 B   ---   --   ---xx   flac  0.5864  skb020224d1_04_Avalon.flac

    10:30.17      111172028 B   ---   --   ---xx   flac  0.5775  skb020224d1_05_Cole's_Law.flac

     1:14.69       13215932 B   ---   --   ---xx   flac  0.4578  skb020224d1_06_Band_Introductions.flac

    11:47.20      124761884 B   ---   --   ---xx   flac  0.6121  skb020224d2_01_Moon_People.flac

    16:01.09      169541612 B   ---   --   ---xx   flac  0.6108  skb020224d2_02_Arf_She_Cried.flac

    18:41.29      197812652 B   ---   --   ---xx   flac  0.6068  skb020224d2_03_Sabertooth.flac

    17:25.46      184446236 B   ---   --   ---xx   flac  0.6078  skb020224d2_04_Five_B4_Funk.flac

    10:26.35      110508764 B   ---   --   ---xx   flac  0.6026  skb020224d2_05_You're_The_One.flac

     2:56.11       31072316 B   ---   --   ---xx   flac  0.4765  skb020224d2_06_Band_Introductions.flac

   154:59.52     1640466432 B                            0.5899  (12 files)


copyright Steve Kimock Productions 2022


Reviews

Matt 2/23/2022 8:31:36 AM

"Dripping w psychedelia"

Products

Setlist at 8150, Vail, CO on Feb 24, 2002

Set One

Long Form Part 1 1212

511586-TRACK

Elmer's Revenge 1019

511587-TRACK

A New Africa 629

511588-TRACK

Avalon 1096

511589-TRACK

Cole's Law 630

511590-TRACK

band introductions 75

511591-TRACK

Set Two

Moon People 707

511592-TRACK

Arf, She Cried 961

511593-TRACK

Sabertooth 1121

511594-TRACK

Five B4 Funk 1046

511595-TRACK

You're The One 626

511596-TRACK

band introductions 176

511597-TRACK

Stream over 25,000 official concert audio and video recordings. Paid subscribers save 15% on Livestreams, CDs, and Downloads. LEARN MORE