Steve Kimock Band

Gothic Theatre

Englewood, CO

Feb 22, 2002

Stream This Show

$30.95
Start your 7-day free trial to stream official concert audio and high-quality video recordings. Subscribers get:
  • Professionally mixed soundboard audio
  • Full-concert video archives available on-demand
  • Complimentary exclusive livestreams
  • Discounts on paid livestreams, CDs, and Downloads

Buy Full Show

$9.95

$9.95

About Formats
About Formats
Show Notes

Steve Kimock - guitars, lap steel

Rodney Holmes - drums

Alphonso Johnson - bass

Mitch Stein - guitar

Recorded by Charlie Miller and Arielle Phares

SHNTOOL OUTPUT:

    length     expanded size    cdr  WAVE problems  fmt   ratio  filename

    15:47.67      167208428 B   ---   --   ---xx   flac  0.5926  skb020222d1_01_Ice_Cream.flac

     8:49.72       93484988 B   ---   --   ---xx   flac  0.5493  skb020222d1_02_Cowboy.flac

    21:23.51      226441196 B   ---   --   ---xx   flac  0.5560  skb020222d1_03_Tangled_Hangers.flac

    22:12.53      235089500 B   ---   --   ---xx   flac  0.5870  skb020222d1_04_Avalon.flac

    10:09.18      107469980 B   ---   --   ---xx   flac  0.5541  skb020222d1_05_Cole's_Law.flac

     1:27.21       15396236 B   ---   --   ---xx   flac  0.4235  skb020222d1_06_Band_Introductions.flac

    13:21.45      141402284 B   ---   --   ---xx   flac  0.5750  skb020222d2_01_A_New_Africa.flac

    15:53.22      168160988 B   ---   --   ---xx   flac  0.5845  skb020222d2_02_Bad_Hair.flac

     1:56.30       20533004 B   ---   --   ---xx   flac  0.4630  skb020222d2_03_Drums.flac

    17:35.43      186203180 B   ---   --   ---xx   flac  0.5937  skb020222d2_04_Arf_She_Cried.flac

    23:48.11      251925116 B   ---   --   ---xx   flac  0.5424  skb020222d2_05_It's_Up_To_You.flac

     5:15.38       55655420 B   ---   --   ---xx   flac  0.5811  skb020222d2_06_Little_Wing.flac

     1:50.21       19453436 B   ---   --   ---xx   flac  0.4114  skb020222d2_07_Band_Introductions.flac

   159:31.42     1688423756 B                            0.5668  (13 files)


copyright 2022 Steve Kimock Productions


Reviews

GlennyB 2/25/2022 6:40:47 PM

"Would love to see this lineup again. "

Barry Buss 2/23/2022 9:53:37 AM

"Avalon!! Quite the show. Miss this configuration ??"

Dave 2/23/2022 6:20:35 AM

"Tangled Hangers. ?? wow!"

Products

Setlist at Gothic Theatre, Englewood, CO on Feb 22, 2002

Set One

Ice Cream 948

511573-TRACK

Cowboy 530

511574-TRACK

Tangled Hangers 1284

511575-TRACK

Avalon 1333

511576-TRACK

Cole's Law 609

511577-TRACK

band introductions 87

511578-TRACK

Set Two

A New Africa 802

511579-TRACK

Bad Hair 953

511580-TRACK

Drums 116

511581-TRACK

Arf, She Cried 1056

511582-TRACK

It's Up To You 1428

511583-TRACK

Little Wing 316

511584-TRACK

band introductions 110

511585-TRACK

Start a free trial now to get unlimited streaming of professionally mixed audio and high-quality video. Paid subscribers get access to exclusive livestreams and more.

More Shows From This Artist