Steve Kimock Band

Fox Theatre

Boulder, CO

Feb 23, 2002

Stream This Show

$30.95
For $12.99/month stream official concert audio and video recordings of your favorite artists and enjoy these added benefits
  • Paid subscribers save 15% on Livestreams, CDs, and Downloads
  • Exclusive live audio & video recordings
  • Premium soundboard quality

Buy Full Show

$9.95

$9.95

About Formats
About Formats
Show Notes

Steve Kimock - guitars, lap steel

Rodney Holmes - drums

Alphonso Johnson - bass

Mitch Stein - guitar

Recorded by Charlie Miller and Arielle Phares

SHNTOOL OUTPUT:

    length     expanded size    cdr  WAVE problems  fmt   ratio  filename

    17:46.65      188195324 B   ---   --   ---xx   flac  0.5931  skb020223d1_01_Rainbow's_Cadillac.flac

    23:15.01      246080396 B   ---   --   ---xx   flac  0.5237  skb020223d1_02_Elmer's_Revenge.flac

    14:26.32      152837708 B   ---   --   ---xx   flac  0.5542  skb020223d1_03_Tongue_n_Groove.flac

    14:30.12      153496268 B   ---   --   ---xx   flac  0.5891  skb020223d1_04_Sabertooth.flac

    14:42.23      155638940 B   ---   --   ---xx   flac  0.5940  skb020223d2_01_Hillbillies.flac

     1:50.20       19451084 B   ---   --   ---xx   flac  0.4277  skb020223d2_02_Band_Introductions.flac

    23:42.36      250925516 B   ---   --   ---xx   flac  0.5596  skb020223d2_03_You're_The_One.flac

    10:01.48      106129340 B   ---   --   ---xx   flac  0.5729  skb020223d2_04_Kissin'_The_Boo_Boo.flac

    22:36.09      239219612 B   ---   --   ---xx   flac  0.5819  skb020223d2_05_Long_Form_Part_1.flac

    12:00.58      127144460 B   ---   --   ---xx   flac  0.5825  skb020223d3_01_Moon_People.flac

     8:41.26       91965596 B   ---   --   ---xx   flac  0.6156  skb020223d3_02_Better_Get_It_In_Your_Soul.flac

     1:37.45       17216684 B   ---   --   ---xx   flac  0.4630  skb020223d3_03_Band_Introductions.flac

   165:11.00     1748300928 B                            0.5694  (12 files)


copyright Steve Kimock Productions 2022


Reviews

Products

Setlist at Fox Theatre, Boulder, CO on Feb 23, 2002

Set One

Rainbows Cadillac 1067

511561-TRACK

Elmer's Revenge 1395

511562-TRACK

Tongue N' Groove 866

511563-TRACK

Sabertooth 870

511564-TRACK

Hillbillies 882

511565-TRACK

band introductions 110

511566-TRACK

Set Two

You're The One 1423

511567-TRACK

Kissin' The Boo Boo 602

511568-TRACK

Long Form Part 1 1356

511569-TRACK

Moon People 721

511570-TRACK

Better Get It In Your Soul 521

511571-TRACK

band introductions 98

511572-TRACK

Stream over 25,000 official concert audio and video recordings. Paid subscribers save 15% on Livestreams, CDs, and Downloads. LEARN MORE