Steve Kimock Band

Gothic Theatre

Englewood, CO

Feb 21, 2002

Stream This Show

$30.95
For $12.99/month stream official concert audio and video recordings of your favorite artists and enjoy these added benefits
  • Paid subscribers save 15% on Livestreams, CDs, and Downloads
  • Exclusive live audio & video recordings
  • Premium soundboard quality

Buy Full Show

$9.95

$9.95

About Formats
About Formats
Show Notes

Steve Kimock - guitars, lap steel

Rodney Holmes - drums

Alphonso Johnson - bass

Mitch Stein - guitar

Recorded by Charlie Miller and Arielle Phares

SHNTOOL OUTPUT:

    length     expanded size    cdr  WAVE problems  fmt   ratio  filename

    23:19.27      246847148 B   ---   --   ---xx   flac  0.5758  skb020221d1_01_Long_Form_Part_1.flac

    14:06.13      149265020 B   ---   --   ---xx   flac  0.5809  skb020221d1_02_Hillbillies.flac

    23:26.06      248032556 B   ---   --   ---xx   flac  0.5602  skb020221d1_03_Elmer's_Revenge.flac

    16:58.34      179655212 B   ---   --   ---xx   flac  0.5927  skb020221d1_04_Sabertooth.flac

    13:20.44      141223532 B   ---   --   ---xx   flac  0.5778  skb020221d2_01_Tongue_n_Groove.flac

     1:52.69       19919132 B   ---   --   ---xx   flac  0.3995  skb020221d2_02_Band_Introductions.flac

    19:00.20      201143084 B   ---   --   ---xx   flac  0.6164  skb020221d2_03_You're_The_One.flac

    26:09.42      276870428 B   ---   --   ---xx   flac  0.5760  skb020221d2_04_Why_Can't_We_All_Just_Samba.flac

    17:48.33      188472860 B   ---   --   ---xx   flac  0.5915  skb020221d2_05_Rainbow's_Cadillac.flac

    11:18.56      119730956 B   ---   --   ---xx   flac  0.6171  skb020221d3_01_Moon_People.flac

    16:52.67      178674428 B   ---   --   ---xx   flac  0.5919  skb020221d3_02_Five_B4_Funk.flac

     2:36.14       27551372 B   ---   --   ---xx   flac  0.4268  skb020221d3_03_Band_Introductions.flac

   186:49.50     1977385728 B                            0.5817  (12 files)


copyright Steve Kimock Productions 2022


Reviews

Products

Setlist at Gothic Theatre, Englewood, CO on Feb 21, 2002

Set One

Long Form Part 1 1399

511549-TRACK

Hillbillies 846

511550-TRACK

Elmer's Revenge 1406

511551-TRACK

Sabertooth 1018

511552-TRACK

Tongue N' Groove 801

511553-TRACK

band introductions 113

511554-TRACK

Set Two

You're The One 1140

511555-TRACK

Why Can't We All Just Samba 1570

511556-TRACK

Rainbows Cadillac 1068

511557-TRACK

Moon People 679

511558-TRACK

Five B4 Funk 1013

511559-TRACK

band introductions 156

511560-TRACK

Stream over 25,000 official concert audio and video recordings. Paid subscribers save 15% on Livestreams, CDs, and Downloads. LEARN MORE